#TITLE:Baptize;
#SUBTITLE:Seikon no Qwaser OP2;
#ARTIST:Yousei Teikoku;
#TITLETRANSLIT:;
#SUBTITLETRANSLIT:;
#ARTISTTRANSLIT:;
#CREDIT:;
#BANNER:;
#BACKGROUND:;
#LYRICSPATH:;
#CDTITLE:cdtitle.png;
#MUSIC:Seikon no Qwaser OP2 - 1.mp3;
#OFFSET:0.080;
#SAMPLESTART:28.491;
#SAMPLELENGTH:12.000;
#SELECTABLE:YES;
#BPMS:0.000=210.000,168.000=105.000,184.000=210.000;
#STOPS:;
#BGCHANGES:0.313=Seikon no Qwaser OP2 - 1.avi=1.000=0=0=1,
99999=-nosongbg-=1.000=0=0=0 // don't automatically add -songbackground-
;
// cache tags:
#FIRSTBEAT:3.000;
#LASTBEAT:294.000;
#SONGFILENAME:songs/Pack anime 1/Seikon no Qwaser OP2 - 1/Seikon no Qwaser OP2 - 1.sm;
#HASMUSIC:1;
#HASBANNER:0;
#MUSICLENGTH:89.812;
// end cache tags

//---------------dance-single - ----------------
#NOTES:
     dance-single:
     :
     Hard:
     10:
     0.948,1.000,1.000,0.212,0.039,481.000,96.000,19.000,0.000,0.000:
0000
0000
0000
2002
,
0000
0000
0000
3003
,
1010
0000
0010
1000
0010
0100
0001
0000
,
1010
0000
0001
1000
0010
0100
0010
0000
,
1100
0000
0100
1000
0010
0100
0001
0000
,
0001
0010
0001
0100
0010
0000
1100
0000
,
1010
0000
1000
0100
1000
0001
0001
0000
,
0110
0000
0001
1000
0100
1000
0001
0000
,
0101
0000
0010
0001
0010
0001
0100
0000
,
0100
0010
1000
0010
1000
0000
1001
0000
,
1001
0000
0101
0100
1000
0010
1010
0000
,
1010
0000
1100
0100
0010
1000
1010
0000
,
1001
0000
1010
1000
0010
0100
0110
0000
,
1100
0100
0010
1000
0001
0100
1000
0000
,
0110
0000
1010
1000
0100
0010
0110
0000
,
0110
0000
0101
0100
0001
1000
1100
0000
,
1001
0000
0110
0010
0100
1000
1010
0000
,
0011
0000
0001
0000
0010
0000
0100
0000
0010
0000
1000
0000
0010
1000
0001
0000
,
1000
0010
1000
0100
1100
0000
0020
0001
,
0031
0100
1000
0100
0010
0100
0001
1000
,
0100
1000
0010
1000
0000
1000
0100
1000
,
0000
0200
0010
0310
0100
0001
1000
0100
,
0000
0020
0100
0130
0001
1000
1000
0001
,
0000
0010
1000
0001
0100
0010
1000
0010
,
0000
2000
0100
3100
0001
1000
0100
1000
,
0100
0001
0010
0010
0100
0001
1000
0100
,
1100
0000
1010
1000
0010
0001
0101
0000
,
0101
0000
1001
0001
0100
1000
1100
0000
,
1100
0000
1001
0001
1000
0100
0110
0000
,
0110
0010
1000
0100
0010
0000
0101
0000
,
1001
0000
1010
0010
1000
0100
0101
0000
,
1001
0000
1100
0100
0010
0001
0011
0000
,
0011
0000
0101
0001
0100
1000
1100
0000
,
1100
1000
0100
0100
1000
0000
1100
0000
,
1001
1000
0010
1000
0000
0001
0010
0001
,
0100
0010
0000
0100
0010
1000
0100
0010
,
0000
0001
0100
0010
0100
1000
0010
0100
,
0000
0002
0100
0103
0001
0100
0010
1000
,
0000
0010
0001
0010
0100
0010
0100
0010
,
0000
2000
0010
3010
1000
0001
0100
0010
,
0000
0002
0100
0103
0001
1000
0100
1000
,
0010
0100
0001
0100
0010
1000
0001
1000
,
1001
0000
1100
0000
0010
0000
0100
0010
0100
0000
0100
0000
0110
0000
0010
0000
,
1010
0100
0101
0010
1002
0000
1000
0013
,
0011
0101
0100
0010
1000
0001
1001
0010
,
0100
0000
0000
0000
0001
0000
0000
0000
1001
0000
0000
0000
1000
0000
0100
0000
1100
0000
0100
1000
0100
0000
1100
0000
0000
0000
0010
0000
1010
0000
0000
0000
,
1001
0001
1000
0001
1000
0000
0010
0100
,
0001
1000
0010
0100
0001
0000
1000
0010
,
1000
0100
0010
1000
0100
1000
0001
0100
,
0010
1000
0010
0100
0000
0100
1000
0100
,
0010
0000
0001
0100
0010
1000
0001
0010
,
0001
0000
0100
0010
0000
0001
1000
0020
,
0100
0230
0000
0301
0100
0010
0100
1000
,
0100
0010
0001
0010
0100
0000
1000
0000
,
1010
1000
0010
1000
0010
0000
0100
0010
,
1000
0001
0100
0010
1000
0000
0001
0001
,
0100
0000
0001
0010
0001
0100
0010
1000
,
0200
1000
1300
0100
0000
0001
0100
0010
,
1000
0000
1010
1000
0010
0100
0001
0100
,
0010
0000
1000
0100
1000
0001
0100
0200
,
0000
0302
0100
0103
0001
0100
0010
1000
,
0010
0100
0001
0010
0000
0100
0010
0000
,
1010
0000
0110
0100
0010
0001
0101
0000
,
1100
0000
0101
0100
0001
0100
0110
0000
,
0011
0000
1001
0001
1000
1000
1100
0000
,
0101
0100
0001
0010
1000
0100
0110
0000
,
0101
0000
1001
1000
0001
0100
0101
0000
,
0101
0000
1001
1000
0001
1000
1100
0000
,
1010
0000
1001
1000
0010
0010
1010
0000
,
1001
0001
0100
1000
0010
0100
0110
0000
,
1001
0000
0001
1000
0010
0100
0001
0100
,
0101
0000
1000
0010
0100
0001
0101
0000
,
1010
1000
0020
2000
3030
0000
0101
0100
,
0002
0200
0000
0000
0303
0000
0000
0000
;

//---------------dance-single - Copied from----------------
#NOTES:
     dance-single:
     Copied from:
     Medium:
     7:
     0.604,0.733,0.646,0.045,0.006,318.000,58.000,4.000,0.000,0.000:
0000
0000
0000
0000
,
0000
0000
0000
0000
,
0000
0000
0000
0000
,
0000
0000
0000
0000
,
0000
0000
0000
0000
,
0000
0000
0000
0000
,
0000
0000
0000
0000
,
0000
0000
0000
0000
,
0000
0000
0000
0000
,
0000
0000
0000
0000
,
1001
0000
1001
0000
0000
0010
0100
0000
,
0110
0000
0110
0000
0000
1000
0010
0000
,
1010
0000
1010
0000
0000
0100
0001
0000
,
0101
0000
0000
0100
0001
0000
0100
0000
,
0101
0000
0101
0000
0000
0010
0001
0000
,
0011
0000
0011
0000
0000
1000
0100
0000
,
1100
0000
1100
0000
0000
1000
0001
0000
,
0011
0000
0000
0100
0010
0000
0010
0000
,
1000
0100
1000
0100
0000
0000
0020
0000
,
0030
0100
0001
0100
0010
0100
0001
0100
,
0000
1000
0010
1000
0000
0100
1000
0100
,
0000
1000
0000
0010
0100
0001
0100
0010
,
0000
0001
0000
0100
0010
1000
0010
0100
,
0000
0010
1000
0001
1000
0001
1000
0010
,
0000
0010
0000
0100
0010
1000
0100
1000
,
0100
0101
0100
1000
,
1100
0000
1010
0000
0000
0001
0100
0000
,
1010
0000
1010
0000
0000
1000
0010
0000
,
0101
0000
0101
0000
0000
0100
0010
0000
,
0110
0000
0000
0100
0010
0000
0100
0000
,
1001
0000
1010
0000
0000
0100
0010
0000
,
1001
0000
1010
0000
0000
0001
0010
0000
,
0101
0000
0110
0000
0000
1000
0100
0000
,
1010
0000
0000
0100
1000
0000
0100
0000
,
0001
1000
0010
1000
0000
0001
0010
0001
,
0000
0010
1000
0010
0100
0010
1000
0010
,
0000
0001
0100
0001
0000
0010
0001
0010
,
0000
0010
0000
0100
0001
1000
0001
0100
,
0000
0010
0100
0010
0100
0001
1000
0001
,
0000
0100
0000
0010
1000
0001
1000
0010
,
0000
0100
0000
0010
0001
1000
0001
0010
,
0100
0101
0010
0001
,
1001
0000
0000
0000
0010
0000
0100
0010
0100
0000
0010
0000
0100
0000
0001
0000
,
1000
0010
0100
0000
1002
0000
1000
0003
,
0011
0001
0100
0010
1000
0001
1000
0010
,
0100
0010
1000
0000
1100
0000
1100
0000
,
1001
1000
1001
0010
,
0001
0000
0010
0100
0000
0000
1000
0000
,
1010
0010
0100
0001
,
1001
0000
0010
0100
0000
0000
1000
0000
,
0010
0000
0001
0100
0001
0100
0001
0100
,
0001
0000
0100
0010
0000
0001
1000
0002
,
0000
0103
0000
0001
0100
0001
1000
0010
,
1000
0001
0100
0001
0000
0000
1000
0000
,
1010
0010
1000
0100
,
0010
0000
0100
1000
0000
0000
0001
0000
,
0101
0100
0010
1000
,
1100
0000
1000
0100
0000
0000
0100
0000
,
1000
0000
0010
1000
0010
0100
0010
1000
,
0010
0000
1000
0100
0000
0001
0100
0002
,
0000
0103
0000
0100
0001
0100
0010
1000
,
0010
0100
0001
0010
0000
0000
0010
0000
,
1010
0000
1010
0000
0000
0001
0100
0000
,
1100
0000
1100
0000
0000
0100
0010
0000
,
0011
0000
1001
0000
0000
1000
0100
0000
,
0101
0000
0000
0001
1000
0000
0001
0000
,
0101
0000
1001
0000
0000
0100
0001
0000
,
0101
0000
1001
0000
0000
1000
0100
0000
,
1010
0000
1001
0000
0000
0010
1000
0000
,
1001
0000
0000
1000
0010
0000
0110
0000
,
0010
0000
0011
0000
0010
0100
0010
0100
,
0010
0000
1000
0001
1000
0001
1000
0000
,
0010
1000
0010
1000
0000
0000
0001
0100
,
0001
0100
0000
0000
0000
0000
0000
0000
;

//---------------dance-single - Copied from Copied f----------------
#NOTES:
     dance-single:
     Copied from Copied f:
     Easy:
     5:
     0.383,0.529,0.122,0.033,0.000,227.000,11.000,3.000,0.000,0.000:
0000
0000
0000
0000
,
0000
0000
0000
0000
,
0000
0000
0000
0000
,
0000
0000
0000
0000
,
0000
0000
0000
0000
,
0000
0000
0000
0000
,
0000
0000
0000
0000
,
0000
0000
0000
0000
,
0000
0000
0000
0000
,
0000
0000
0000
0000
,
0001
1000
0000
0100
,
0010
0100
0000
0010
,
1000
0010
0000
0001
,
0100
0000
0000
0100
0000
0000
0100
0000
,
0001
0100
0000
0001
,
0010
0001
0000
0100
,
1000
0100
0000
0001
,
0100
0000
0000
0100
0000
0000
0010
0000
,
1000
0010
0000
0100
,
0000
0001
0010
0001
,
0100
0010
0100
1000
,
0010
0100
0001
0100
,
0001
1000
0010
0100
,
0001
1000
0010
1000
,
0100
0001
0010
0100
,
1000
1001
0100
1000
,
0100
1000
0000
0100
,
0010
1000
0000
0010
,
0100
0001
0000
0010
,
0100
0000
0000
0010
0000
0000
0100
0000
,
0001
1000
0000
0010
,
1000
0010
0000
0010
,
0100
1000
0000
0100
,
0010
0000
0000
0100
0000
0000
0010
0000
,
0001
0010
0100
0010
,
0100
1000
0100
1000
,
0010
0100
0001
0010
,
0100
0010
0001
0001
,
0100
0010
0100
0001
,
0100
0010
1000
0010
,
0100
0010
0001
0100
,
0001
0101
0010
0001
,
1001
0010
0100
0001
,
1000
0000
0001
0000
1002
0000
1000
0003
,
1001
0010
1000
0001
,
0100
0010
1100
1100
,
1001
1000
1001
0010
,
0100
0000
0000
0100
0000
0000
0001
0000
,
1000
0010
0100
0001
,
1000
0000
0000
0100
0000
0000
1000
0000
,
0010
0001
0100
0001
,
1000
0000
0000
0010
0000
0000
1000
0000
,
0010
0001
0100
1000
,
1000
0100
0010
1000
,
1010
0010
1000
0001
,
1000
0000
0000
0010
0000
0000
0001
0000
,
0100
0010
1000
0010
,
0100
0000
0000
0001
0000
0000
0100
0000
,
1000
0010
0100
0100
,
0010
1000
0001
0100
,
0010
1000
0001
0010
,
0010
0001
0100
0010
,
1000
0010
0000
0100
,
1000
0100
0000
0010
,
0001
0010
0000
0100
,
0001
0000
0000
0001
0000
0000
0001
0000
,
0010
0100
0000
0010
,
0100
1000
0000
0010
,
1000
0001
0000
0010
,
0100
0000
0000
0010
0000
0000
0110
0000
,
0010
0000
0001
0100
0001
0100
0001
0000
,
0100
0000
1000
0010
1000
0010
1000
0000
,
0020
0000
1000
1030
0000
0000
0002
0000
,
0100
0103
0000
0000
0000
0000
0000
0000
;
